<?xml version="1.0" standalone="no"?>
<!DOCTYPE svg PUBLIC "-//W3C//DTD SVG 1.1//EN" "http://www.w3.org/Graphics/SVG/1.1/DTD/svg11.dtd" >
<svg xmlns="http://www.w3.org/2000/svg">
<metadata></metadata>
<defs>
<font id="DroidSansMonoRegular" horiz-adv-x="1229" >
<font-face units-per-em="2048" ascent="1638" descent="-410" />
<missing-glyph horiz-adv-x="500" />
<glyph horiz-adv-x="2048" />
<glyph horiz-adv-x="2048" />
<glyph unicode=" " />
<glyph unicode="!" d="M487 111q0 139 127 139t127 -139q0 -140 -127 -140t-127 140zM504 1462h223l-51 -1048h-121z" />
<glyph unicode="&#x22;" d="M285 1462h237l-41 -528h-155zM707 1462h237l-41 -528h-155z" />
<glyph unicode="#" d="M45 428v137h244l65 328h-233v137h258l82 432h147l-82 -432h293l84 432h144l-84 -432h221v-137h-248l-64 -328h240v-137h-266l-82 -428h-148l84 428h-290l-82 -428h-144l78 428h-217zM436 565h291l64 328h-291z" />
<glyph unicode="$" d="M182 172v172q196 -92 365 -92v434q-193 64 -270.5 145.5t-77.5 219.5q0 131 92 217t256 106v180h137v-176q187 -9 336 -78l-66 -145q-140 62 -270 72v-422q199 -68 279.5 -148.5t80.5 -210.5q0 -280 -360 -335v-230h-137v221q-228 0 -365 70zM375 1049q0 -78 40.5 -121 t131.5 -74v369q-172 -29 -172 -174zM684 262q184 28 184 184q0 127 -184 189v-373z" />
<glyph unicode="%" d="M0 1133q0 164 79 255t216 91q129 0 210 -93t81 -253q0 -162 -78.5 -255.5t-216.5 -93.5q-131 0 -211 94.5t-80 254.5zM152 1133q0 -230 141 -230q139 0 139 230q0 225 -139 225q-141 0 -141 -225zM170 0l729 1462h158l-729 -1462h-158zM643 330q0 164 79 255t216 91 q129 0 210 -93t81 -253q0 -161 -78.5 -254.5t-216.5 -93.5q-130 0 -210.5 94.5t-80.5 253.5zM795 330q0 -230 141 -230q139 0 139 230q0 225 -139 225q-141 0 -141 -225z" />
<glyph unicode="&#x26;" d="M61 381q0 131 63.5 228.5t235.5 199.5q-163 192 -163 356q0 148 95.5 234t274.5 86q168 0 260.5 -85.5t92.5 -234.5q0 -203 -318 -389l281 -348q71 121 104 266h184q-53 -234 -178 -403l234 -291h-217l-131 166q-174 -186 -412 -186q-189 0 -297.5 107t-108.5 294z M252 387q0 -105 67 -175.5t160 -70.5q160 0 299 146l-323 401q-203 -123 -203 -301zM375 1165q0 -118 133 -268q134 79 183.5 138.5t49.5 133.5t-49.5 120t-130.5 46q-87 0 -136.5 -44.5t-49.5 -125.5z" />
<glyph unicode="'" d="M496 1462h237l-41 -528h-155z" />
<glyph unicode="(" d="M295 567q0 532 444 895h193q-449 -376 -449 -893q0 -521 447 -893h-191q-444 353 -444 891z" />
<glyph unicode=")" d="M297 1462h192q445 -361 445 -895q0 -540 -445 -891h-190q446 371 446 893q0 518 -448 893z" />
<glyph unicode="*" d="M133 1081l29 193l391 -111l-43 393h205l-43 -393l397 111l27 -193l-379 -28l246 -326l-179 -96l-176 358l-157 -358l-185 96l242 326z" />
<glyph unicode="+" d="M152 647v150h387v389h149v-389h387v-150h-387v-385h-149v385h-387z" />
<glyph unicode="," d="M440 -289q76 323 111 551h219l16 -24q-57 -224 -194 -527h-152z" />
<glyph unicode="-" d="M285 465v168h659v-168h-659z" />
<glyph unicode="." d="M463 135q0 166 151 166q152 0 152 -166t-152 -166q-151 0 -151 166z" />
<glyph unicode="/" d="M211 0l627 1462h178l-627 -1462h-178z" />
<glyph unicode="0" d="M147 733q0 752 465 752q232 0 350.5 -193.5t118.5 -558.5q0 -753 -469 -753q-229 0 -347 193.5t-118 559.5zM332 733q0 -318 67.5 -458t212.5 -140q147 0 216 140.5t69 457.5q0 315 -69 455.5t-216 140.5q-145 0 -212.5 -139.5t-67.5 -456.5z" />
<glyph unicode="1" d="M225 1163l383 299h150v-1462h-176v913q0 122 8 361q-39 -43 -121 -113l-147 -121z" />
<glyph unicode="2" d="M158 0v156l350 381q195 213 257 317.5t62 230.5q0 113 -63.5 178.5t-171.5 65.5q-160 0 -318 -137l-102 119q192 172 422 172q194 0 306 -106t112 -285q0 -119 -59 -244t-291 -375l-281 -299v-8h688v-166h-911z" />
<glyph unicode="3" d="M131 59v170q184 -96 383 -96q354 0 354 289q0 258 -381 258h-133v151h133q160 0 248 76t88 201q0 102 -68 161.5t-182 59.5q-178 0 -344 -121l-92 125q187 150 436 150q206 0 321.5 -99t115.5 -264q0 -138 -82 -231t-234 -119v-6q361 -47 361 -348q0 -203 -138 -319.5 t-399 -116.5q-242 0 -387 79z" />
<glyph unicode="4" d="M61 328v159l664 983h188v-976h213v-166h-213v-328h-176v328h-676zM240 494h497v356q0 176 13 432h-9q-36 -102 -90 -180z" />
<glyph unicode="5" d="M172 59v172q144 -96 360 -96q336 0 336 314q0 294 -344 294q-89 0 -231 -26l-90 57l55 688h690v-166h-532l-39 -419q107 20 209 20q210 0 339.5 -114.5t129.5 -313.5q0 -234 -138 -361.5t-389 -127.5q-224 0 -356 79z" />
<glyph unicode="6" d="M154 625q0 858 639 858q104 0 172 -19v-155q-71 24 -166 24q-224 0 -336.5 -141t-122.5 -447h12q95 170 307 170q195 0 305.5 -119t110.5 -325q0 -228 -120.5 -359.5t-323.5 -131.5q-218 0 -347.5 168.5t-129.5 476.5zM336 506q0 -152 81 -262.5t212 -110.5 q127 0 198.5 88t71.5 250q0 145 -68.5 223t-195.5 78t-213 -81t-86 -185z" />
<glyph unicode="7" d="M143 1296v166h940v-145l-555 -1317h-194l563 1296h-754z" />
<glyph unicode="8" d="M156 373q0 257 282 393q-235 146 -235 369q0 161 116.5 255.5t294.5 94.5q184 0 298 -95t114 -257q0 -230 -262 -359q309 -160 309 -393q0 -181 -126 -291t-333 -110q-216 0 -337 103.5t-121 289.5zM334 371q0 -240 276 -240q136 0 210.5 65.5t74.5 182.5q0 90 -63 159.5 t-214 143.5l-30 14q-254 -121 -254 -325zM381 1126q0 -90 49.5 -152.5t185.5 -125.5q232 103 232 278q0 101 -63 154t-173 53q-106 0 -168.5 -53t-62.5 -154z" />
<glyph unicode="9" d="M154 991q0 228 120.5 360t323.5 132q220 0 348.5 -171t128.5 -474q0 -858 -639 -858q-105 0 -172 18v156q67 -25 166 -25q224 0 336.5 141t122.5 447h-12q-96 -170 -308 -170q-194 0 -304.5 118t-110.5 326zM330 991q0 -145 68.5 -223t195.5 -78t213 81.5t86 184.5 q0 151 -80 262t-213 111q-128 0 -199 -87t-71 -251z" />
<glyph unicode=":" d="M487 111q0 139 127 139t127 -139q0 -140 -127 -140t-127 140zM487 987q0 139 127 139t127 -139t-127 -139t-127 139z" />
<glyph unicode=";" d="M410 -264q62 255 100 502h199l14 -23q-51 -197 -176 -479h-137zM494 987q0 139 127 139t127 -139t-127 -139t-127 139z" />
<glyph unicode="&#x3c;" d="M152 672v102l923 451v-160l-715 -342l715 -342v-160z" />
<glyph unicode="=" d="M152 442v150h923v-150h-923zM152 852v149h923v-149h-923z" />
<glyph unicode="&#x3e;" d="M152 221v160l714 342l-714 342v160l923 -451v-102z" />
<glyph unicode="?" d="M168 1386q209 97 426 97q214 0 339.5 -97.5t125.5 -261.5q0 -133 -53.5 -216t-196.5 -191q-118 -87 -151 -141t-33 -144v-18h-160v37q0 120 46 195t161 157q130 97 171.5 155t41.5 158q0 92 -74.5 149.5t-206.5 57.5q-174 0 -371 -90zM426 111q0 139 127 139t127 -139 q0 -140 -127 -140t-127 140z" />
<glyph unicode="@" d="M31 602q0 397 167 628.5t455 231.5q248 0 396.5 -196t148.5 -535q0 -231 -64 -370.5t-178 -139.5q-128 0 -157 180h-4q-74 -180 -230 -180q-120 0 -190 104.5t-70 280.5q0 206 97 332.5t255 126.5q137 0 256 -47l-22 -416q-2 -38 -2 -69v-7q0 -176 72 -176q100 0 100 383 q0 278 -111 436t-299 158q-226 0 -352.5 -192t-126.5 -527q0 -312 129.5 -482.5t368.5 -170.5q181 0 346 78v-133q-158 -82 -352 -82q-298 0 -465.5 207t-167.5 577zM465 602q0 -252 127 -252q131 0 145 312l15 253q-54 21 -103 21q-89 0 -136.5 -93.5t-47.5 -240.5z" />
<glyph unicode="A" d="M33 0l483 1468h195l485 -1468h-192l-144 453h-491l-146 -453h-190zM422 618h385l-133 424q-39 124 -62 226q-20 -99 -46 -183z" />
<glyph unicode="B" d="M135 0v1462h440q274 0 397.5 -87.5t123.5 -282.5q0 -128 -78.5 -213t-212.5 -103v-10q332 -54 332 -342q0 -198 -127.5 -311t-347.5 -113h-527zM322 158h307q311 0 311 274q0 254 -324 254h-294v-528zM322 842h284q156 0 227.5 55t71.5 182q0 120 -76.5 172t-242.5 52 h-264v-461z" />
<glyph unicode="C" d="M129 733q0 346 179 548t489 202q220 0 383 -86l-78 -156q-154 78 -305 78q-215 0 -343 -158.5t-128 -429.5q0 -287 120 -437.5t351 -150.5q130 0 327 58v-162q-146 -59 -358 -59q-309 0 -473 196t-164 557z" />
<glyph unicode="D" d="M135 0v1462h342q317 0 493.5 -189t176.5 -528q0 -361 -183 -553t-528 -192h-301zM322 160h96q532 0 532 579q0 564 -493 564h-135v-1143z" />
<glyph unicode="E" d="M217 0v1462h842v-164h-656v-452h617v-162h-617v-520h656v-164h-842z" />
<glyph unicode="F" d="M244 0v1462h841v-164h-655v-516h617v-164h-617v-618h-186z" />
<glyph unicode="G" d="M117 733q0 351 162 550.5t446 199.5q192 0 346 -86l-72 -162q-146 84 -280 84q-192 0 -299 -155.5t-107 -432.5q0 -588 394 -588q97 0 202 29v436h-237v164h422v-717q-195 -75 -420 -75q-262 0 -409.5 199.5t-147.5 553.5z" />
<glyph unicode="H" d="M135 0v1462h187v-616h585v616h187v-1462h-187v682h-585v-682h-187z" />
<glyph unicode="I" d="M225 0v123l295 20v1176l-295 20v123h776v-123l-294 -20v-1176l294 -20v-123h-776z" />
<glyph unicode="J" d="M137 39v166q162 -62 309 -62q161 0 254 79.5t93 226.5v1013h186v-1011q0 -216 -140.5 -343.5t-377.5 -127.5q-217 0 -324 59z" />
<glyph unicode="K" d="M211 0v1462h186v-731l121 168l453 563h209l-521 -637l539 -825h-211l-450 698l-140 -114v-584h-186z" />
<glyph unicode="L" d="M233 0v1462h187v-1296h635v-166h-822z" />
<glyph unicode="M" d="M113 0v1462h247l248 -1192h6l250 1192h252v-1462h-153v887q0 102 14 391h-8l-283 -1278h-154l-278 1280h-8q18 -266 18 -406v-874h-151z" />
<glyph unicode="N" d="M135 0v1462h213l578 -1204h6q-14 303 -14 404v800h174v-1462h-215l-580 1210h-8q18 -277 18 -417v-793h-172z" />
<glyph unicode="O" d="M84 735q0 750 534 750q256 0 392.5 -195.5t136.5 -556.5t-138 -557t-393 -196q-532 0 -532 755zM281 733q0 -590 335 -590q173 0 253.5 145t80.5 445q0 303 -81.5 445.5t-250.5 142.5q-337 0 -337 -588z" />
<glyph unicode="P" d="M176 0v1462h404q514 0 514 -428q0 -219 -138.5 -342t-402.5 -123h-191v-569h-186zM362 727h170q198 0 283.5 72t85.5 225q0 279 -338 279h-201v-576z" />
<glyph unicode="Q" d="M84 735q0 750 534 750q256 0 392.5 -195.5t136.5 -556.5q0 -526 -285 -694q85 -180 279 -311l-121 -142q-236 171 -328 400q-36 -6 -76 -6q-532 0 -532 755zM281 733q0 -590 335 -590q173 0 253.5 145t80.5 445q0 303 -81.5 445.5t-250.5 142.5q-337 0 -337 -588z" />
<glyph unicode="R" d="M186 0v1462h357q520 0 520 -415q0 -287 -289 -392l397 -655h-219l-350 604h-229v-604h-187zM373 762h164q171 0 252 66t81 210q0 141 -80 203t-258 62h-159v-541z" />
<glyph unicode="S" d="M141 49v178q211 -86 414 -86q350 0 350 240q0 104 -70.5 160t-285.5 133q-208 73 -298.5 174.5t-90.5 263.5q0 174 128.5 272.5t352.5 98.5q229 0 416 -78l-64 -164q-193 78 -360 78q-293 0 -293 -209q0 -102 65.5 -164t270.5 -133q246 -88 328.5 -181.5t82.5 -240.5 q0 -192 -138.5 -301.5t-393.5 -109.5q-265 0 -414 69z" />
<glyph unicode="T" d="M102 1298v164h1022v-164h-417v-1298h-187v1298h-418z" />
<glyph unicode="U" d="M125 520v942h186v-932q0 -387 307 -387q295 0 300 389v932h186v-948q0 -260 -126 -398t-370 -138q-483 0 -483 540z" />
<glyph unicode="V" d="M33 1462h196l295 -927q41 -127 88 -334q31 145 93 340l292 921h199l-489 -1462h-187z" />
<glyph unicode="W" d="M2 1462h170l88 -663q23 -176 40 -378t17 -241q24 151 70 312l141 516h177l145 -521q61 -219 72 -307q2 53 65 619l70 663h170l-187 -1462h-190l-168 580q-40 138 -66 282q-32 -173 -65 -284l-156 -578h-190z" />
<glyph unicode="X" d="M53 0l453 764l-422 698h199l331 -559l334 559h191l-422 -692l457 -770h-211l-355 635l-366 -635h-189z" />
<glyph unicode="Y" d="M33 1462h203l376 -739l381 739h201l-487 -893v-569h-187v559z" />
<glyph unicode="Z" d="M102 0v145l793 1151h-772v166h981v-145l-793 -1151h813v-166h-1022z" />
<glyph unicode="[" d="M412 -324v1786h528v-149h-346v-1487h346v-150h-528z" />
<glyph unicode="\" d="M211 1462h178l627 -1462h-178z" />
<glyph unicode="]" d="M289 -174h346v1487h-346v149h528v-1786h-528v150z" />
<glyph unicode="^" d="M111 549l424 924h102l481 -924h-162l-368 735l-318 -735h-159z" />
<glyph unicode="_" d="M-16 -184h1259v-140h-1259v140z" />
<glyph unicode="`" d="M418 1548v21h219q86 -178 174 -301v-27h-121q-166 142 -272 307z" />
<glyph unicode="a" d="M135 307q0 332 510 348l203 7v69q0 236 -244 236q-147 0 -328 -82l-63 137q196 96 383 96q227 0 328.5 -87t101.5 -279v-752h-131l-37 152h-8q-77 -97 -158 -134.5t-209 -37.5q-163 0 -255.5 86t-92.5 241zM324 305q0 -178 200 -178q147 0 234.5 81.5t87.5 229.5v99 l-162 -7q-196 -8 -278 -61.5t-82 -163.5z" />
<glyph unicode="b" d="M158 0v1556h182v-376q0 -81 -8 -226h8q107 164 322 164q201 0 315.5 -149.5t114.5 -417.5q0 -270 -115 -420.5t-315 -150.5q-207 0 -322 159h-12l-37 -139h-133zM340 551q0 -227 69.5 -323.5t221.5 -96.5q272 0 272 422q0 414 -274 414q-155 0 -222 -94t-67 -322z" />
<glyph unicode="c" d="M172 543q0 281 145 428t408 147q178 0 336 -59l-62 -158q-150 57 -268 57q-371 0 -371 -413q0 -406 361 -406q157 0 321 62v-160q-134 -61 -329 -61q-257 0 -399 145.5t-142 417.5z" />
<glyph unicode="d" d="M137 547q0 270 115 420.5t315 150.5q206 0 322 -160h12q-12 129 -12 162v436h182v-1556h-147l-27 147h-8q-113 -167 -322 -167q-201 0 -315.5 149.5t-114.5 417.5zM326 545q0 -414 274 -414q152 0 218.5 88.5t70.5 286.5v41q0 227 -69.5 323.5t-221.5 96.5 q-272 0 -272 -422z" />
<glyph unicode="e" d="M133 541q0 266 135.5 421.5t362.5 155.5q212 0 338.5 -134t126.5 -357v-113h-774q8 -375 344 -375q195 0 370 76v-160q-166 -75 -364 -75q-245 0 -392 149.5t-147 411.5zM326 662h573q0 305 -272 305q-275 0 -301 -305z" />
<glyph unicode="f" d="M156 961v110l317 33v96q0 193 90 280t299 87q129 0 252 -35l-41 -143q-104 28 -207 28q-123 0 -167 -50t-44 -165v-104h389v-137h-389v-961h-182v961h-317z" />
<glyph unicode="g" d="M102 -186q0 212 240 270q-96 47 -96 154q0 112 133 192q-89 37 -140 122.5t-51 186.5q0 182 106.5 280.5t303.5 98.5q86 0 150 -20h378v-113l-196 -27q65 -85 65 -213q0 -161 -106.5 -256.5t-296.5 -95.5q-55 0 -86 6q-100 -56 -100 -133q0 -84 161 -84h187 q174 0 266 -77t92 -220q0 -377 -565 -377q-218 0 -331.5 80.5t-113.5 225.5zM274 -180q0 -174 271 -174q395 0 395 223q0 88 -50 118.5t-198 30.5h-188q-230 0 -230 -198zM367 745q0 -227 227 -227q223 0 223 230q0 239 -225 239t-225 -242z" />
<glyph unicode="h" d="M160 0v1556h182v-462l-8 -144h10q103 168 336 168q389 0 389 -401v-717h-182v707q0 260 -238 260q-307 0 -307 -398v-569h-182z" />
<glyph unicode="i" d="M197 0v123l344 20v811l-269 21v123h451v-955l352 -20v-123h-878zM526 1436q0 114 107 114q106 0 106 -114q0 -58 -31.5 -86.5t-74.5 -28.5q-107 0 -107 115z" />
<glyph unicode="j" d="M135 -303q134 -39 289 -39q117 0 182.5 57t65.5 158v1081l-420 21v123h602v-1215q0 -180 -113 -277.5t-319 -97.5q-164 0 -287 35v154zM637 1436q0 114 106 114q107 0 107 -114q0 -115 -107 -115q-106 0 -106 115z" />
<glyph unicode="k" d="M215 0v1556h180v-714l-16 -289h4l135 152l395 393h222l-494 -475l522 -623h-213l-426 504l-129 -82v-422h-180z" />
<glyph unicode="l" d="M188 0v123l344 20v1270l-268 21v122h451v-1413l352 -20v-123h-879z" />
<glyph unicode="m" d="M92 0v1098h127l27 -148h10q67 168 201 168q163 0 213 -182h6q76 182 219 182q128 0 186 -92.5t58 -308.5v-717h-162v707q0 146 -26.5 203t-88.5 57q-87 0 -126.5 -83t-39.5 -278v-606h-161v707q0 260 -125 260q-84 0 -120 -79.5t-36 -318.5v-569h-162z" />
<glyph unicode="n" d="M160 0v1098h147l27 -148h10q103 168 336 168q389 0 389 -401v-717h-182v707q0 260 -238 260q-307 0 -307 -398v-569h-182z" />
<glyph unicode="o" d="M115 551q0 263 135.5 415t365.5 152q218 0 357 -155t139 -412q0 -265 -137 -418t-365 -153q-216 0 -355.5 155.5t-139.5 415.5zM303 551q0 -420 311 -420q310 0 310 420q0 416 -312 416q-309 0 -309 -416z" />
<glyph unicode="p" d="M158 -492v1590h147l27 -148h8q110 168 322 168q201 0 315.5 -149.5t114.5 -417.5q0 -270 -115 -420.5t-315 -150.5q-207 0 -322 159h-12q12 -129 12 -162v-469h-182zM340 551q0 -227 69.5 -323.5t221.5 -96.5q272 0 272 422q0 414 -274 414q-152 0 -218.5 -88t-70.5 -287 v-41z" />
<glyph unicode="q" d="M137 547q0 270 115 420.5t315 150.5q207 0 322 -168h8l27 148h147v-1590h-182v469q0 41 12 170h-12q-113 -167 -322 -167q-201 0 -315.5 149.5t-114.5 417.5zM326 545q0 -414 274 -414q152 0 218.5 88.5t70.5 286.5v41q0 227 -69.5 323.5t-221.5 96.5q-272 0 -272 -422z " />
<glyph unicode="r" d="M264 0v1098h148l22 -201h8q76 119 163 170t214 51q118 0 240 -45l-49 -166q-123 45 -224 45q-163 0 -251.5 -92.5t-88.5 -267.5v-592h-182z" />
<glyph unicode="s" d="M203 49v166q193 -86 370 -86q275 0 275 162q0 57 -49 99t-226 106q-233 87 -293.5 159.5t-60.5 171.5q0 136 111.5 213.5t308.5 77.5q198 0 369 -74l-60 -149q-182 72 -319 72q-236 0 -236 -133q0 -61 50.5 -97.5t232.5 -101.5q211 -77 280.5 -151.5t69.5 -182.5 q0 -150 -117 -235.5t-331 -85.5q-248 0 -375 69z" />
<glyph unicode="t" d="M139 961v94l267 49l77 287h105v-293h438v-137h-438v-637q0 -195 192 -195q93 0 240 21v-138q-130 -32 -252 -32q-362 0 -362 344v637h-267z" />
<glyph unicode="u" d="M160 381v717h182v-707q0 -260 236 -260q161 0 235 92.5t74 304.5v570h182v-1098h-147l-27 147h-10q-105 -167 -334 -167q-391 0 -391 401z" />
<glyph unicode="v" d="M82 1098h188l240 -652q85 -231 100 -325h6q7 44 101 325l239 652h189l-416 -1098h-231z" />
<glyph unicode="w" d="M-4 1098h162l98 -543q34 -186 57 -393h6q31 185 68 358l133 578h193l127 -578q43 -195 67 -358h6q31 242 60 393l102 543h158l-225 -1098h-195l-131 596l-68 330h-6l-65 -334l-135 -592h-189z" />
<glyph unicode="x" d="M96 0l414 563l-393 535h207l290 -410l291 410h207l-395 -535l413 -563h-206l-310 436l-311 -436h-207z" />
<glyph unicode="y" d="M82 1098h188l262 -654q82 -205 89 -290h6q23 112 90 292l239 652h189l-475 -1241q-67 -174 -156 -261.5t-246 -87.5q-86 0 -168 17v145q62 -12 136 -12q96 0 149.5 41t95.5 141l58 150z" />
<glyph unicode="z" d="M182 0v125l660 836h-627v137h811v-146l-647 -815h665v-137h-862z" />
<glyph unicode="{" d="M225 492v155q338 0 338 189v333q0 287 438 293v-149q-144 -2 -200 -39.5t-56 -118.5v-332q0 -207 -233 -248v-12q233 -41 233 -248v-331q0 -81 56 -118.5t200 -39.5v-150q-438 6 -438 293v334q0 189 -338 189z" />
<glyph unicode="|" d="M539 -492v2048h149v-2048h-149z" />
<glyph unicode="}" d="M227 -174q143 1 199.5 39t56.5 119v331q0 207 234 248v12q-234 41 -234 248v332q0 81 -56.5 119t-199.5 39v149q439 -6 439 -293v-333q0 -189 338 -189v-155q-338 0 -338 -189v-334q0 -287 -439 -293v150z" />
<glyph unicode="~" d="M152 586v162q99 108 247 108q100 0 248 -63q130 -56 201 -56q108 0 227 121v-162q-99 -108 -248 -108q-100 0 -247 63q-131 56 -201 56q-108 0 -227 -121z" />
<glyph unicode="&#xa0;" />
<glyph unicode="&#xa1;" d="M487 979q0 139 127 139t127 -139t-127 -139t-127 139zM502 -373l51 1049h121l51 -1049h-223z" />
<glyph unicode="&#xa2;" d="M172 743q0 494 434 568v172h137v-164q162 -3 318 -59l-62 -158q-150 57 -268 57q-371 0 -371 -414q0 -405 361 -405q153 0 321 61v-159q-122 -59 -299 -62v-200h-137v206q-434 69 -434 557z" />
<glyph unicode="&#xa3;" d="M119 0v154q200 49 200 284v213h-198v137h198v324q0 168 108.5 268.5t289.5 100.5q192 0 346 -80l-66 -144q-141 72 -272 72q-223 0 -223 -246v-295h377v-137h-377v-211q0 -196 -140 -274h748v-166h-991z" />
<glyph unicode="&#xa4;" d="M174 1065l98 98l127 -129q101 68 215 68t213 -68l129 129l99 -96l-129 -129q67 -101 67 -215q0 -120 -67 -215l127 -127l-97 -96l-129 127q-99 -66 -213 -66q-118 0 -215 68l-127 -127l-96 96l127 127q-65 95 -65 213q0 114 65 213zM375 723q0 -100 70.5 -170t168.5 -70 q100 0 172 70t72 170q0 101 -71.5 172.5t-172.5 71.5q-99 0 -169 -71t-70 -173z" />
<glyph unicode="&#xa5;" d="M78 1462h192l342 -739l346 739h191l-385 -768h240v-137h-302v-158h302v-137h-302v-262h-178v262h-301v137h301v158h-301v137h234z" />
<glyph unicode="&#xa6;" d="M539 289h149v-781h-149v781zM539 776v780h149v-780h-149z" />
<glyph unicode="&#xa7;" d="M244 55v158q171 -82 323 -82q240 0 240 141q0 57 -43 97t-195 102q-197 84 -253 159t-56 179q0 179 160 258q-160 80 -160 236q0 120 104 192t277 72q162 0 326 -72l-56 -139q-156 67 -276 67q-201 0 -201 -116q0 -54 49.5 -93t196.5 -100q157 -62 231 -139.5t74 -190.5 q0 -182 -145 -270q145 -80 145 -225q0 -138 -110.5 -218.5t-307.5 -80.5q-204 0 -323 65zM414 831q0 -73 56.5 -126.5t207.5 -116.5l35 -15q114 76 114 185q0 89 -73.5 144.5t-206.5 103.5q-133 -48 -133 -175z" />
<glyph unicode="&#xa8;" d="M330 1395q0 102 96 102t96 -102q0 -103 -96 -103t-96 103zM705 1395q0 102 96 102t96 -102q0 -103 -96 -103t-96 103z" />
<glyph unicode="&#xa9;" d="M6 731q0 343 160.5 547.5t447.5 204.5q286 0 447.5 -204t161.5 -548q0 -345 -162 -548t-447 -203q-286 0 -447 203.5t-161 547.5zM115 731q0 -301 129.5 -472t369.5 -171t370 170.5t130 472.5t-130 472.5t-370 170.5t-369.5 -171t-129.5 -472zM248 733q0 209 110 332 t301 123q128 0 254 -62l-61 -127q-110 54 -193 54q-121 0 -186 -85.5t-65 -236.5q0 -323 251 -323q94 0 215 45v-131q-107 -50 -221 -50q-195 0 -300 123.5t-105 337.5z" />
<glyph unicode="&#xaa;" d="M276 989q0 116 85 167.5t276 57.5l125 5v10q0 133 -152 133q-112 0 -245 -51l-41 110q138 58 294 58q291 0 291 -238v-444h-110l-33 118q-104 -131 -268 -131q-222 0 -222 205zM428 987q0 -90 104 -90q105 0 167.5 55t62.5 146v20l-100 -2q-114 -2 -174 -28t-60 -101z " />
<glyph unicode="&#xab;" d="M197 526v27l309 414l117 -78l-238 -348l238 -348l-117 -78zM604 526v27l309 414l117 -78l-237 -348l237 -348l-117 -78z" />
<glyph unicode="&#xac;" d="M152 647v150h923v-535h-149v385h-774z" />
<glyph unicode="&#xad;" d="M285 465v168h659v-168h-659z" />
<glyph unicode="&#xae;" d="M6 731q0 343 160.5 547.5t447.5 204.5q286 0 447.5 -204t161.5 -548q0 -345 -162 -548t-447 -203q-286 0 -447 203.5t-161 547.5zM115 731q0 -301 129.5 -472t369.5 -171t370 170.5t130 472.5t-130 472.5t-370 170.5t-369.5 -171t-129.5 -472zM348 285v893h234 q325 0 325 -265q0 -163 -159 -233l237 -395h-178l-207 352h-94v-352h-158zM506 768h72q170 0 170 141q0 74 -42 103.5t-131 29.5h-69v-274z" />
<glyph unicode="&#xaf;" d="M-20 1556v140h1269v-140h-1269z" />
<glyph unicode="&#xb0;" d="M299 1167q0 129 92.5 222.5t222.5 93.5q129 0 222.5 -93.5t93.5 -222.5t-93 -221t-223 -92q-131 0 -223 92.5t-92 220.5zM422 1167q0 -78 56 -134t136 -56q79 0 136 56t57 134q0 81 -57.5 138t-135.5 57q-79 0 -135.5 -57.5t-56.5 -137.5z" />
<glyph unicode="&#xb1;" d="M152 0v150h923v-150h-923zM152 647v150h387v389h149v-389h387v-150h-387v-385h-149v385h-387z" />
<glyph unicode="&#xb2;" d="M348 672v102l187 199q111 118 141.5 168.5t30.5 107.5q0 115 -111 115q-81 0 -164 -76l-78 86q117 103 248 103q118 0 183 -60t65 -164q0 -66 -35 -134t-164 -197l-135 -136h363v-114h-531z" />
<glyph unicode="&#xb3;" d="M342 705v124q110 -65 203 -65q149 0 149 137q0 125 -147 125h-72v104h70q123 0 123 127q0 111 -97 111q-71 0 -161 -70l-66 86q111 93 238 93q109 0 173 -54.5t64 -148.5q0 -139 -149 -189q176 -39 176 -186q0 -116 -74.5 -180t-214.5 -64q-131 0 -215 50z" />
<glyph unicode="&#xb4;" d="M418 1241v27q94 133 174 301h219v-21q-112 -173 -272 -307h-121z" />
<glyph unicode="&#xb5;" d="M180 -492v1590h182v-707q0 -260 218 -260q148 0 217 91t69 306v570h183v-1098h-148l-27 147h-10q-96 -167 -295 -167q-139 0 -213 88q6 -153 6 -240v-320h-182z" />
<glyph unicode="&#xb6;" d="M66 1042q0 259 108.5 386.5t341.5 127.5h563v-1816h-121v1657h-206v-1657h-121v819q-61 -18 -146 -18q-419 0 -419 501z" />
<glyph unicode="&#xb7;" d="M487 723q0 139 127 139t127 -139t-127 -139t-127 139z" />
<glyph unicode="&#xb8;" d="M428 -375q33 -6 80 -6q151 0 151 92q0 74 -172 113l91 176h120l-57 -115q160 -37 160 -172q0 -205 -291 -205q-34 0 -82 9v108z" />
<glyph unicode="&#xb9;" d="M367 1309l219 151h135v-788h-146v465q0 69 9 200q-41 -44 -74 -65l-70 -51z" />
<glyph unicode="&#xba;" d="M281 1133q0 162 90 254t245 92q145 0 238.5 -92.5t93.5 -253.5q0 -165 -92 -257t-244 -92q-144 0 -237.5 93t-93.5 256zM432 1133q0 -230 182 -230q181 0 181 230q0 225 -181 225q-182 0 -182 -225z" />
<glyph unicode="&#xbb;" d="M197 193l237 348l-237 348l116 78l310 -414v-27l-310 -411zM604 193l238 348l-238 348l117 78l309 -414v-27l-309 -411z" />
<glyph unicode="&#xbc;" d="M22 1309l219 151h135v-788h-146v465q0 69 9 200q-41 -44 -74 -65l-70 -51zM170 0l729 1462h158l-729 -1462h-158zM606 175v98l377 523h141v-508h84v-113h-84v-174h-143v174h-375zM751 288h230v176q0 82 6 172q-40 -73 -80 -131z" />
<glyph unicode="&#xbd;" d="M3 1309l219 151h135v-788h-146v465q0 69 9 200q-41 -44 -74 -65l-70 -51zM105 0l729 1462h158l-729 -1462h-158zM694 1v102l187 199q111 118 141.5 168.5t30.5 107.5q0 115 -111 115q-81 0 -164 -76l-78 86q117 103 248 103q118 0 183 -60t65 -164q0 -66 -35 -134 t-164 -197l-135 -136h363v-114h-531z" />
<glyph unicode="&#xbe;" d="M21 705v124q110 -65 203 -65q149 0 149 137q0 125 -147 125h-72v104h70q123 0 123 127q0 111 -97 111q-71 0 -161 -70l-66 86q111 93 238 93q109 0 173 -54.5t64 -148.5q0 -139 -149 -189q176 -39 176 -186q0 -116 -74.5 -180t-214.5 -64q-131 0 -215 50zM223 0l729 1462 h158l-729 -1462h-158zM627 175v98l377 523h141v-508h84v-113h-84v-174h-143v174h-375zM772 288h230v176q0 82 6 172q-40 -73 -80 -131z" />
<glyph unicode="&#xbf;" d="M168 -35q0 134 53.5 217t196.5 191q119 87 151.5 140.5t32.5 143.5v19h160v-37q0 -119 -44.5 -193.5t-162.5 -158.5q-129 -97 -171 -155t-42 -159q0 -93 74.5 -149.5t206.5 -56.5q181 0 370 90l62 -144q-219 -106 -422 -106q-217 0 -341 97.5t-124 260.5zM547 979 q0 139 127 139t127 -139t-127 -139t-127 139z" />
<glyph unicode="&#xc0;" d="M33 0l483 1468h195l485 -1468h-192l-144 453h-491l-146 -453h-190zM341 1886v21h219q86 -178 174 -301v-27h-121q-166 142 -272 307zM422 618h385l-133 424q-39 124 -62 226q-20 -99 -46 -183z" />
<glyph unicode="&#xc1;" d="M33 0l483 1468h195l485 -1468h-192l-144 453h-491l-146 -453h-190zM422 618h385l-133 424q-39 124 -62 226q-20 -99 -46 -183zM520 1579v27q94 133 174 301h219v-21q-112 -173 -272 -307h-121z" />
<glyph unicode="&#xc2;" d="M33 0l483 1468h195l485 -1468h-192l-144 453h-491l-146 -453h-190zM283 1579v27q25 29 59 67q139 155 176 234h193q37 -79 176 -234l59 -67v-27h-121q-85 56 -211 186q-133 -136 -211 -186h-120zM422 618h385l-133 424q-39 124 -62 226q-20 -99 -46 -183z" />
<glyph unicode="&#xc3;" d="M33 0l483 1468h195l485 -1468h-192l-144 453h-491l-146 -453h-190zM253 1579q25 264 211 264q58 0 161 -56q102 -56 136 -56q80 0 106 114h105q-27 -264 -211 -264q-57 0 -157 57q-100 56 -140 56q-82 0 -107 -115h-104zM422 618h385l-133 424q-39 124 -62 226 q-20 -99 -46 -183z" />
<glyph unicode="&#xc4;" d="M33 0l483 1468h195l485 -1468h-192l-144 453h-491l-146 -453h-190zM330 1733q0 102 96 102t96 -102q0 -103 -96 -103t-96 103zM422 618h385l-133 424q-39 124 -62 226q-20 -99 -46 -183zM705 1733q0 102 96 102t96 -102q0 -103 -96 -103t-96 103z" />
<glyph unicode="&#xc5;" d="M33 0l483 1468h195l485 -1468h-192l-144 453h-491l-146 -453h-190zM387 1581q0 99 60.5 157t162.5 58q101 0 165.5 -59t64.5 -154q0 -98 -63.5 -157.5t-166.5 -59.5q-102 0 -162.5 58t-60.5 157zM422 618h385l-133 424q-39 124 -62 226q-20 -99 -46 -183zM498 1581 q0 -113 112 -113q50 0 81.5 30t31.5 83t-31.5 83t-81.5 30q-49 0 -80.5 -30t-31.5 -83z" />
<glyph unicode="&#xc6;" d="M0 0l338 1462h872v-164h-477v-452h438v-162h-438v-520h477v-164h-653v453h-289l-96 -453h-172zM305 618h252v680h-106z" />
<glyph unicode="&#xc7;" d="M129 733q0 346 179 548t489 202q220 0 383 -86l-78 -156q-154 78 -305 78q-215 0 -343 -158.5t-128 -429.5q0 -287 120 -437.5t351 -150.5q130 0 327 58v-162q-146 -59 -358 -59q-309 0 -473 196t-164 557zM508 -375q33 -6 80 -6q151 0 151 92q0 74 -172 113l91 176h120 l-57 -115q160 -37 160 -172q0 -205 -291 -205q-34 0 -82 9v108z" />
<glyph unicode="&#xc8;" d="M217 0v1462h842v-164h-656v-452h617v-162h-617v-520h656v-164h-842zM345 1886v21h219q86 -178 174 -301v-27h-121q-166 142 -272 307z" />
<glyph unicode="&#xc9;" d="M217 0v1462h842v-164h-656v-452h617v-162h-617v-520h656v-164h-842zM481 1579v27q94 133 174 301h219v-21q-112 -173 -272 -307h-121z" />
<glyph unicode="&#xca;" d="M217 0v1462h842v-164h-656v-452h617v-162h-617v-520h656v-164h-842zM318 1579v27q25 29 59 67q139 155 176 234h193q37 -79 176 -234l59 -67v-27h-121q-85 56 -211 186q-133 -136 -211 -186h-120z" />
<glyph unicode="&#xcb;" d="M217 0v1462h842v-164h-656v-452h617v-162h-617v-520h656v-164h-842zM355 1733q0 102 96 102t96 -102q0 -103 -96 -103t-96 103zM730 1733q0 102 96 102t96 -102q0 -103 -96 -103t-96 103z" />
<glyph unicode="&#xcc;" d="M225 0v123l295 20v1176l-295 20v123h776v-123l-294 -20v-1176l294 -20v-123h-776zM310 1886v21h219q86 -178 174 -301v-27h-121q-166 142 -272 307z" />
<glyph unicode="&#xcd;" d="M225 0v123l295 20v1176l-295 20v123h776v-123l-294 -20v-1176l294 -20v-123h-776zM537 1579v27q94 133 174 301h219v-21q-112 -173 -272 -307h-121z" />
<glyph unicode="&#xce;" d="M225 0v123l295 20v1176l-295 20v123h776v-123l-294 -20v-1176l294 -20v-123h-776zM283 1579v27q25 29 59 67q139 155 176 234h193q37 -79 176 -234l59 -67v-27h-121q-85 56 -211 186q-133 -136 -211 -186h-120z" />
<glyph unicode="&#xcf;" d="M225 0v123l295 20v1176l-295 20v123h776v-123l-294 -20v-1176l294 -20v-123h-776zM332 1733q0 102 96 102t96 -102q0 -103 -96 -103t-96 103zM707 1733q0 102 96 102t96 -102q0 -103 -96 -103t-96 103z" />
<glyph unicode="&#xd0;" d="M0 659v162h135v641h342q317 0 493.5 -189t176.5 -528q0 -361 -183 -553t-528 -192h-301v659h-135zM322 160h96q532 0 532 579q0 564 -493 564h-135v-482h380v-162h-380v-499z" />
<glyph unicode="&#xd1;" d="M135 0v1462h213l578 -1204h6q-14 303 -14 404v800h174v-1462h-215l-580 1210h-8q18 -277 18 -417v-793h-172zM258 1579q25 264 211 264q58 0 161 -56q102 -56 136 -56q80 0 106 114h105q-27 -264 -211 -264q-57 0 -157 57q-100 56 -140 56q-82 0 -107 -115h-104z" />
<glyph unicode="&#xd2;" d="M84 735q0 750 534 750q256 0 392.5 -195.5t136.5 -556.5t-138 -557t-393 -196q-532 0 -532 755zM281 733q0 -590 335 -590q173 0 253.5 145t80.5 445q0 303 -81.5 445.5t-250.5 142.5q-337 0 -337 -588zM337 1886v21h219q86 -178 174 -301v-27h-121q-166 142 -272 307z " />
<glyph unicode="&#xd3;" d="M84 735q0 750 534 750q256 0 392.5 -195.5t136.5 -556.5t-138 -557t-393 -196q-532 0 -532 755zM281 733q0 -590 335 -590q173 0 253.5 145t80.5 445q0 303 -81.5 445.5t-250.5 142.5q-337 0 -337 -588zM508 1579v27q94 133 174 301h219v-21q-112 -173 -272 -307h-121z " />
<glyph unicode="&#xd4;" d="M84 735q0 750 534 750q256 0 392.5 -195.5t136.5 -556.5t-138 -557t-393 -196q-532 0 -532 755zM281 733q0 -590 335 -590q173 0 253.5 145t80.5 445q0 303 -81.5 445.5t-250.5 142.5q-337 0 -337 -588zM283 1579v27q25 29 59 67q139 155 176 234h193q37 -79 176 -234 l59 -67v-27h-121q-85 56 -211 186q-133 -136 -211 -186h-120z" />
<glyph unicode="&#xd5;" d="M84 735q0 750 534 750q256 0 392.5 -195.5t136.5 -556.5t-138 -557t-393 -196q-532 0 -532 755zM262 1579q25 264 211 264q58 0 161 -56q102 -56 136 -56q80 0 106 114h105q-27 -264 -211 -264q-57 0 -157 57q-100 56 -140 56q-82 0 -107 -115h-104zM281 733 q0 -590 335 -590q173 0 253.5 145t80.5 445q0 303 -81.5 445.5t-250.5 142.5q-337 0 -337 -588z" />
<glyph unicode="&#xd6;" d="M84 735q0 750 534 750q256 0 392.5 -195.5t136.5 -556.5t-138 -557t-393 -196q-532 0 -532 755zM281 733q0 -590 335 -590q173 0 253.5 145t80.5 445q0 303 -81.5 445.5t-250.5 142.5q-337 0 -337 -588zM332 1733q0 102 96 102t96 -102q0 -103 -96 -103t-96 103z M707 1733q0 102 96 102t96 -102q0 -103 -96 -103t-96 103z" />
<glyph unicode="&#xd7;" d="M190 1042l105 105l317 -318l322 318l104 -103l-321 -321l319 -320l-102 -102l-322 317l-317 -315l-102 103l315 317z" />
<glyph unicode="&#xd8;" d="M80 2l121 197q-117 184 -117 536q0 750 534 750q186 0 310 -105l92 152l137 -78l-125 -201q115 -188 115 -520q0 -361 -138 -557t-393 -196q-189 0 -307 94l-92 -150zM281 733q0 -212 38 -342l515 836q-80 94 -216 94q-337 0 -337 -588zM403 229q80 -86 213 -86 q173 0 253.5 145t80.5 445q0 209 -35 328z" />
<glyph unicode="&#xd9;" d="M125 520v942h186v-932q0 -387 307 -387q295 0 300 389v932h186v-948q0 -260 -126 -398t-370 -138q-483 0 -483 540zM349 1886v21h219q86 -178 174 -301v-27h-121q-166 142 -272 307z" />
<glyph unicode="&#xda;" d="M125 520v942h186v-932q0 -387 307 -387q295 0 300 389v932h186v-948q0 -260 -126 -398t-370 -138q-483 0 -483 540zM494 1579v27q94 133 174 301h219v-21q-112 -173 -272 -307h-121z" />
<glyph unicode="&#xdb;" d="M125 520v942h186v-932q0 -387 307 -387q295 0 300 389v932h186v-948q0 -260 -126 -398t-370 -138q-483 0 -483 540zM283 1579v27q25 29 59 67q139 155 176 234h193q37 -79 176 -234l59 -67v-27h-121q-85 56 -211 186q-133 -136 -211 -186h-120z" />
<glyph unicode="&#xdc;" d="M125 520v942h186v-932q0 -387 307 -387q295 0 300 389v932h186v-948q0 -260 -126 -398t-370 -138q-483 0 -483 540zM332 1733q0 102 96 102t96 -102q0 -103 -96 -103t-96 103zM707 1733q0 102 96 102t96 -102q0 -103 -96 -103t-96 103z" />
<glyph unicode="&#xdd;" d="M33 1462h203l376 -739l381 739h201l-487 -893v-569h-187v559zM494 1579v27q94 133 174 301h219v-21q-112 -173 -272 -307h-121z" />
<glyph unicode="&#xde;" d="M176 0v1462h186v-252h218q514 0 514 -428q0 -219 -138.5 -342t-402.5 -123h-191v-317h-186zM362 475h170q198 0 283.5 72t85.5 225q0 279 -338 279h-201v-576z" />
<glyph unicode="&#xdf;" d="M164 0v1200q0 367 424 367q194 0 302.5 -79.5t108.5 -227.5q0 -132 -133 -249q-84 -74 -108.5 -105t-24.5 -64q0 -39 29 -69t151 -111q144 -95 191 -173t47 -176q0 -162 -100 -247.5t-283 -85.5q-182 0 -289 69v166q143 -86 277 -86q213 0 213 174q0 81 -45.5 132 t-143.5 112q-123 78 -173 139t-50 148q0 117 129 223t129 196q0 164 -227 164q-242 0 -242 -215v-1202h-182z" />
<glyph unicode="&#xe0;" d="M135 307q0 332 510 348l203 7v69q0 236 -244 236q-147 0 -328 -82l-63 137q196 96 383 96q227 0 328.5 -87t101.5 -279v-752h-131l-37 152h-8q-77 -97 -158 -134.5t-209 -37.5q-163 0 -255.5 86t-92.5 241zM324 305q0 -178 200 -178q147 0 234.5 81.5t87.5 229.5v99 l-162 -7q-196 -8 -278 -61.5t-82 -163.5zM333 1548v21h219q86 -178 174 -301v-27h-121q-166 142 -272 307z" />
<glyph unicode="&#xe1;" d="M135 307q0 332 510 348l203 7v69q0 236 -244 236q-147 0 -328 -82l-63 137q196 96 383 96q227 0 328.5 -87t101.5 -279v-752h-131l-37 152h-8q-77 -97 -158 -134.5t-209 -37.5q-163 0 -255.5 86t-92.5 241zM324 305q0 -178 200 -178q147 0 234.5 81.5t87.5 229.5v99 l-162 -7q-196 -8 -278 -61.5t-82 -163.5zM502 1241v27q94 133 174 301h219v-21q-112 -173 -272 -307h-121z" />
<glyph unicode="&#xe2;" d="M135 307q0 332 510 348l203 7v69q0 236 -244 236q-147 0 -328 -82l-63 137q196 96 383 96q227 0 328.5 -87t101.5 -279v-752h-131l-37 152h-8q-77 -97 -158 -134.5t-209 -37.5q-163 0 -255.5 86t-92.5 241zM291 1241v27q25 29 59 67q139 155 176 234h193q37 -79 176 -234 l59 -67v-27h-121q-85 56 -211 186q-133 -136 -211 -186h-120zM324 305q0 -178 200 -178q147 0 234.5 81.5t87.5 229.5v99l-162 -7q-196 -8 -278 -61.5t-82 -163.5z" />
<glyph unicode="&#xe3;" d="M135 307q0 332 510 348l203 7v69q0 236 -244 236q-147 0 -328 -82l-63 137q196 96 383 96q227 0 328.5 -87t101.5 -279v-752h-131l-37 152h-8q-77 -97 -158 -134.5t-209 -37.5q-163 0 -255.5 86t-92.5 241zM264 1241q25 264 211 264q58 0 161 -56q102 -56 136 -56 q80 0 106 114h105q-27 -264 -211 -264q-57 0 -157 57q-100 56 -140 56q-82 0 -107 -115h-104zM324 305q0 -178 200 -178q147 0 234.5 81.5t87.5 229.5v99l-162 -7q-196 -8 -278 -61.5t-82 -163.5z" />
<glyph unicode="&#xe4;" d="M135 307q0 332 510 348l203 7v69q0 236 -244 236q-147 0 -328 -82l-63 137q196 96 383 96q227 0 328.5 -87t101.5 -279v-752h-131l-37 152h-8q-77 -97 -158 -134.5t-209 -37.5q-163 0 -255.5 86t-92.5 241zM324 305q0 -178 200 -178q147 0 234.5 81.5t87.5 229.5v99 l-162 -7q-196 -8 -278 -61.5t-82 -163.5zM342 1395q0 102 96 102t96 -102q0 -103 -96 -103t-96 103zM717 1395q0 102 96 102t96 -102q0 -103 -96 -103t-96 103z" />
<glyph unicode="&#xe5;" d="M135 307q0 332 510 348l203 7v69q0 236 -244 236q-147 0 -328 -82l-63 137q196 96 383 96q227 0 328.5 -87t101.5 -279v-752h-131l-37 152h-8q-77 -97 -158 -134.5t-209 -37.5q-163 0 -255.5 86t-92.5 241zM324 305q0 -178 200 -178q147 0 234.5 81.5t87.5 229.5v99 l-162 -7q-196 -8 -278 -61.5t-82 -163.5zM386 1456q0 99 60.5 157t162.5 58q101 0 165.5 -59t64.5 -154q0 -98 -63.5 -157.5t-166.5 -59.5q-102 0 -162.5 58t-60.5 157zM497 1456q0 -113 112 -113q50 0 81.5 30t31.5 83t-31.5 83t-81.5 30q-49 0 -80.5 -30t-31.5 -83z" />
<glyph unicode="&#xe6;" d="M45 307q0 332 328 348l149 7v69q0 236 -139 236q-107 0 -211 -82l-57 137q131 96 276 96q188 0 246 -178q78 178 240 178q137 0 223 -135.5t86 -355.5v-113h-496q3 -192 67 -283.5t169 -91.5q111 0 233 76v-162q-107 -73 -241 -73q-222 0 -316 229q-105 -229 -301 -229 q-115 0 -185.5 86.5t-70.5 240.5zM215 305q0 -83 32 -130.5t87 -47.5q82 0 134 82.5t52 228.5v99l-88 -7q-217 -17 -217 -225zM694 662h316q0 141 -40.5 223t-111.5 82q-68 0 -113 -78t-51 -227z" />
<glyph unicode="&#xe7;" d="M172 543q0 281 145 428t408 147q178 0 336 -59l-62 -158q-150 57 -268 57q-371 0 -371 -413q0 -406 361 -406q157 0 321 62v-160q-134 -61 -329 -61q-257 0 -399 145.5t-142 417.5zM477 -375q33 -6 80 -6q151 0 151 92q0 74 -172 113l91 176h120l-57 -115 q160 -37 160 -172q0 -205 -291 -205q-34 0 -82 9v108z" />
<glyph unicode="&#xe8;" d="M133 541q0 266 135.5 421.5t362.5 155.5q212 0 338.5 -134t126.5 -357v-113h-774q8 -375 344 -375q195 0 370 76v-160q-166 -75 -364 -75q-245 0 -392 149.5t-147 411.5zM326 662h573q0 305 -272 305q-275 0 -301 -305zM374 1548v21h219q86 -178 174 -301v-27h-121 q-166 142 -272 307z" />
<glyph unicode="&#xe9;" d="M133 541q0 266 135.5 421.5t362.5 155.5q212 0 338.5 -134t126.5 -357v-113h-774q8 -375 344 -375q195 0 370 76v-160q-166 -75 -364 -75q-245 0 -392 149.5t-147 411.5zM326 662h573q0 305 -272 305q-275 0 -301 -305zM500 1241v27q94 133 174 301h219v-21 q-112 -173 -272 -307h-121z" />
<glyph unicode="&#xea;" d="M133 541q0 266 135.5 421.5t362.5 155.5q212 0 338.5 -134t126.5 -357v-113h-774q8 -375 344 -375q195 0 370 76v-160q-166 -75 -364 -75q-245 0 -392 149.5t-147 411.5zM299 1241v27q25 29 59 67q139 155 176 234h193q37 -79 176 -234l59 -67v-27h-121q-85 56 -211 186 q-133 -136 -211 -186h-120zM326 662h573q0 305 -272 305q-275 0 -301 -305z" />
<glyph unicode="&#xeb;" d="M133 541q0 266 135.5 421.5t362.5 155.5q212 0 338.5 -134t126.5 -357v-113h-774q8 -375 344 -375q195 0 370 76v-160q-166 -75 -364 -75q-245 0 -392 149.5t-147 411.5zM326 662h573q0 305 -272 305q-275 0 -301 -305zM348 1395q0 102 96 102t96 -102q0 -103 -96 -103 t-96 103zM723 1395q0 102 96 102t96 -102q0 -103 -96 -103t-96 103z" />
<glyph unicode="&#xec;" d="M197 0v123l344 20v811l-269 21v123h451v-955l352 -20v-123h-878zM333 1548v21h219q86 -178 174 -301v-27h-121q-166 142 -272 307z" />
<glyph unicode="&#xed;" d="M197 0v123l344 20v811l-269 21v123h451v-955l352 -20v-123h-878zM531 1241v27q94 133 174 301h219v-21q-112 -173 -272 -307h-121z" />
<glyph unicode="&#xee;" d="M197 0v123l344 20v811l-269 21v123h451v-955l352 -20v-123h-878zM283 1241v27q25 29 59 67q139 155 176 234h193q37 -79 176 -234l59 -67v-27h-121q-85 56 -211 186q-133 -136 -211 -186h-120z" />
<glyph unicode="&#xef;" d="M197 0v123l344 20v811l-269 21v123h451v-955l352 -20v-123h-878zM330 1395q0 102 96 102t96 -102q0 -103 -96 -103t-96 103zM705 1395q0 102 96 102t96 -102q0 -103 -96 -103t-96 103z" />
<glyph unicode="&#xf0;" d="M135 477q0 234 120.5 364t334.5 130q211 0 299 -119l8 4q-58 226 -242 391l-256 -153l-73 114l217 131q-104 71 -172 109l69 123q143 -70 246 -148l227 138l74 -113l-194 -117q301 -291 301 -758q0 -277 -128.5 -435t-353.5 -158q-213 0 -345 133.5t-132 363.5zM328 471 q0 -340 288 -340q154 0 221.5 99.5t67.5 295.5q0 129 -77.5 213t-213.5 84q-286 0 -286 -352z" />
<glyph unicode="&#xf1;" d="M160 0v1098h147l27 -148h10q103 168 336 168q389 0 389 -401v-717h-182v707q0 260 -238 260q-307 0 -307 -398v-569h-182zM260 1241q25 264 211 264q58 0 161 -56q102 -56 136 -56q80 0 106 114h105q-27 -264 -211 -264q-57 0 -157 57q-100 56 -140 56q-82 0 -107 -115 h-104z" />
<glyph unicode="&#xf2;" d="M115 551q0 263 135.5 415t365.5 152q218 0 357 -155t139 -412q0 -265 -137 -418t-365 -153q-216 0 -355.5 155.5t-139.5 415.5zM303 551q0 -420 311 -420q310 0 310 420q0 416 -312 416q-309 0 -309 -416zM378 1548v21h219q86 -178 174 -301v-27h-121q-166 142 -272 307z " />
<glyph unicode="&#xf3;" d="M115 551q0 263 135.5 415t365.5 152q218 0 357 -155t139 -412q0 -265 -137 -418t-365 -153q-216 0 -355.5 155.5t-139.5 415.5zM303 551q0 -420 311 -420q310 0 310 420q0 416 -312 416q-309 0 -309 -416zM498 1241v27q94 133 174 301h219v-21q-112 -173 -272 -307h-121z " />
<glyph unicode="&#xf4;" d="M115 551q0 263 135.5 415t365.5 152q218 0 357 -155t139 -412q0 -265 -137 -418t-365 -153q-216 0 -355.5 155.5t-139.5 415.5zM278 1241v27q25 29 59 67q139 155 176 234h193q37 -79 176 -234l59 -67v-27h-121q-85 56 -211 186q-133 -136 -211 -186h-120zM303 551 q0 -420 311 -420q310 0 310 420q0 416 -312 416q-309 0 -309 -416z" />
<glyph unicode="&#xf5;" d="M115 551q0 263 135.5 415t365.5 152q218 0 357 -155t139 -412q0 -265 -137 -418t-365 -153q-216 0 -355.5 155.5t-139.5 415.5zM254 1241q25 264 211 264q58 0 161 -56q102 -56 136 -56q80 0 106 114h105q-27 -264 -211 -264q-57 0 -157 57q-100 56 -140 56 q-82 0 -107 -115h-104zM303 551q0 -420 311 -420q310 0 310 420q0 416 -312 416q-309 0 -309 -416z" />
<glyph unicode="&#xf6;" d="M115 551q0 263 135.5 415t365.5 152q218 0 357 -155t139 -412q0 -265 -137 -418t-365 -153q-216 0 -355.5 155.5t-139.5 415.5zM303 551q0 -420 311 -420q310 0 310 420q0 416 -312 416q-309 0 -309 -416zM323 1395q0 102 96 102t96 -102q0 -103 -96 -103t-96 103z M698 1395q0 102 96 102t96 -102q0 -103 -96 -103t-96 103z" />
<glyph unicode="&#xf7;" d="M152 647v150h923v-150h-923zM498 373q0 125 114 125q115 0 115 -125t-115 -125q-114 0 -114 125zM498 1071q0 125 114 125q115 0 115 -125t-115 -125q-114 0 -114 125z" />
<glyph unicode="&#xf8;" d="M115 551q0 266 133 416.5t368 150.5q128 0 236 -57l76 119l131 -84l-84 -131q137 -156 137 -414q0 -271 -134.5 -421t-367.5 -150q-129 0 -233 53l-76 -119l-131 84l84 131q-139 158 -139 422zM303 551q0 -180 53 -275l406 656q-66 35 -156 35q-161 0 -232 -103.5 t-71 -312.5zM467 164q61 -33 154 -33q161 0 232 105.5t71 314.5q0 164 -52 266z" />
<glyph unicode="&#xf9;" d="M160 381v717h182v-707q0 -260 236 -260q161 0 235 92.5t74 304.5v570h182v-1098h-147l-27 147h-10q-105 -167 -334 -167q-391 0 -391 401zM341 1548v21h219q86 -178 174 -301v-27h-121q-166 142 -272 307z" />
<glyph unicode="&#xfa;" d="M160 381v717h182v-707q0 -260 236 -260q161 0 235 92.5t74 304.5v570h182v-1098h-147l-27 147h-10q-105 -167 -334 -167q-391 0 -391 401zM500 1241v27q94 133 174 301h219v-21q-112 -173 -272 -307h-121z" />
<glyph unicode="&#xfb;" d="M160 381v717h182v-707q0 -260 236 -260q161 0 235 92.5t74 304.5v570h182v-1098h-147l-27 147h-10q-105 -167 -334 -167q-391 0 -391 401zM291 1241v27q25 29 59 67q139 155 176 234h193q37 -79 176 -234l59 -67v-27h-121q-85 56 -211 186q-133 -136 -211 -186h-120z" />
<glyph unicode="&#xfc;" d="M160 381v717h182v-707q0 -260 236 -260q161 0 235 92.5t74 304.5v570h182v-1098h-147l-27 147h-10q-105 -167 -334 -167q-391 0 -391 401zM332 1395q0 102 96 102t96 -102q0 -103 -96 -103t-96 103zM707 1395q0 102 96 102t96 -102q0 -103 -96 -103t-96 103z" />
<glyph unicode="&#xfd;" d="M82 1098h188l262 -654q82 -205 89 -290h6q23 112 90 292l239 652h189l-475 -1241q-67 -174 -156 -261.5t-246 -87.5q-86 0 -168 17v145q62 -12 136 -12q96 0 149.5 41t95.5 141l58 150zM494 1241v27q94 133 174 301h219v-21q-112 -173 -272 -307h-121z" />
<glyph unicode="&#xfe;" d="M158 -492v2048h182v-458l-8 -148h8q110 168 322 168q201 0 315.5 -149.5t114.5 -417.5q0 -270 -115 -420.5t-315 -150.5q-207 0 -322 159h-12q12 -129 12 -162v-469h-182zM340 551q0 -227 69.5 -323.5t221.5 -96.5q272 0 272 422q0 414 -274 414q-152 0 -218.5 -88 t-70.5 -287v-41z" />
<glyph unicode="&#xff;" d="M82 1098h188l262 -654q82 -205 89 -290h6q23 112 90 292l239 652h189l-475 -1241q-67 -174 -156 -261.5t-246 -87.5q-86 0 -168 17v145q62 -12 136 -12q96 0 149.5 41t95.5 141l58 150zM338 1395q0 102 96 102t96 -102q0 -103 -96 -103t-96 103zM713 1395q0 102 96 102 t96 -102q0 -103 -96 -103t-96 103z" />
<glyph unicode="&#x152;" d="M20 735q0 750 512 750q82 0 154 -23h541v-164h-398v-452h359v-162h-359v-520h398v-164h-574l-48 -10q-51 -10 -97 -10q-488 0 -488 755zM209 733q0 -590 309 -590q70 0 133 33v1112q-58 33 -131 33q-311 0 -311 -588z" />
<glyph unicode="&#x153;" d="M57 551q0 268 88 417.5t242 149.5q171 0 260 -217q84 217 242 217q131 0 208 -133.5t77 -357.5v-113h-439q3 -375 189 -375q108 0 204 76v-162q-94 -73 -217 -73q-87 0 -158.5 59t-101.5 162q-88 -221 -266 -221q-146 0 -237 153.5t-91 417.5zM227 551 q0 -211 39.5 -315.5t130.5 -104.5q168 0 168 410q0 426 -170 426q-90 0 -129 -103t-39 -313zM737 662h260q0 305 -123 305q-125 0 -137 -305z" />
<glyph unicode="&#x178;" d="M33 1462h203l376 -739l381 739h201l-487 -893v-569h-187v559zM332 1733q0 102 96 102t96 -102q0 -103 -96 -103t-96 103zM707 1733q0 102 96 102t96 -102q0 -103 -96 -103t-96 103z" />
<glyph unicode="&#x2c6;" d="M283 1241v27q25 29 59 67q139 155 176 234h193q37 -79 176 -234l59 -67v-27h-121q-85 56 -211 186q-133 -136 -211 -186h-120z" />
<glyph unicode="&#x2dc;" d="M254 1241q25 264 211 264q58 0 161 -56q102 -56 136 -56q80 0 106 114h105q-27 -264 -211 -264q-57 0 -157 57q-100 56 -140 56q-82 0 -107 -115h-104z" />
<glyph unicode="&#x2000;" horiz-adv-x="953" />
<glyph unicode="&#x2001;" horiz-adv-x="1907" />
<glyph unicode="&#x2002;" horiz-adv-x="953" />
<glyph unicode="&#x2003;" horiz-adv-x="1907" />
<glyph unicode="&#x2004;" horiz-adv-x="635" />
<glyph unicode="&#x2005;" horiz-adv-x="476" />
<glyph unicode="&#x2006;" horiz-adv-x="317" />
<glyph unicode="&#x2007;" horiz-adv-x="317" />
<glyph unicode="&#x2008;" horiz-adv-x="238" />
<glyph unicode="&#x2009;" horiz-adv-x="381" />
<glyph unicode="&#x200a;" horiz-adv-x="105" />
<glyph unicode="&#x2010;" d="M285 465v168h659v-168h-659z" />
<glyph unicode="&#x2011;" d="M285 465v168h659v-168h-659z" />
<glyph unicode="&#x2012;" d="M285 465v168h659v-168h-659z" />
<glyph unicode="&#x2013;" d="M184 465v168h860v-168h-860z" />
<glyph unicode="&#x2014;" d="M-6 465v168h1241v-168h-1241z" />
<glyph unicode="&#x2018;" d="M446 983q54 206 177 479h157q-62 -255 -100 -501h-219z" />
<glyph unicode="&#x2019;" d="M446 961q65 266 101 501h219l14 -22q-55 -213 -176 -479h-158z" />
<glyph unicode="&#x201a;" d="M457 -264q71 292 100 502h199l14 -23q-55 -213 -176 -479h-137z" />
<glyph unicode="&#x201c;" d="M233 983q54 206 177 479h157q-62 -255 -100 -501h-219zM659 983q54 206 177 479h157q-62 -255 -100 -501h-219z" />
<glyph unicode="&#x201d;" d="M233 961q65 266 101 501h219l14 -22q-55 -213 -176 -479h-158zM659 961q65 266 101 501h219l14 -22q-55 -213 -176 -479h-158z" />
<glyph unicode="&#x201e;" d="M244 -264q71 292 100 502h199l14 -23q-55 -213 -176 -479h-137zM670 -264q71 292 100 502h199l14 -23q-51 -197 -176 -479h-137z" />
<glyph unicode="&#x2022;" d="M379 748q0 262 235 262q236 0 236 -262q0 -128 -63.5 -195.5t-172.5 -67.5q-111 0 -173 67t-62 196z" />
<glyph unicode="&#x2026;" d="M78 111q0 139 127 139t127 -139q0 -140 -127 -140t-127 140zM487 111q0 139 127 139t127 -139q0 -140 -127 -140t-127 140zM897 111q0 139 127 139t127 -139q0 -140 -127 -140t-127 140z" />
<glyph unicode="&#x202f;" horiz-adv-x="381" />
<glyph unicode="&#x2039;" d="M401 526v27l310 414l116 -78l-237 -348l237 -348l-116 -78z" />
<glyph unicode="&#x203a;" d="M401 193l238 348l-238 348l117 78l309 -414v-27l-309 -411z" />
<glyph unicode="&#x205f;" horiz-adv-x="476" />
<glyph unicode="&#x20ac;" d="M96 502v137h148l-2 38l2 120h-148v137h160q39 262 179.5 405.5t359.5 143.5q191 0 335 -92l-79 -146q-122 74 -242 74q-136 0 -233 -99.5t-134 -285.5h432v-137h-446q0 -15 -1 -29l-1 -25v-62q0 -20 2 -42h385v-137h-367q73 -359 369 -359q136 0 268 58v-162 q-122 -59 -282 -59q-447 0 -541 522h-164z" />
<glyph unicode="&#x2122;" d="M0 1354v108h481v-108h-178v-613h-127v613h-176zM526 741v721h187l139 -534l149 534h179v-721h-127v342q0 87 10 207h-12l-154 -549h-100l-146 549h-12l10 -180v-369h-123z" />
<glyph unicode="&#xe000;" horiz-adv-x="1100" d="M0 0v1100h1100v-1100h-1100z" />
<glyph unicode="&#xfb01;" d="M49 961v75l195 68v96q0 190 76.5 278.5t254.5 88.5q97 0 197 -37l-47 -141q-79 28 -143 28q-92 0 -124 -50.5t-32 -164.5v-104h246v-137h-246v-961h-182v961h-195zM854 1395q0 114 107 114q106 0 106 -114q0 -58 -31.5 -86.5t-74.5 -28.5q-107 0 -107 115zM868 0v1098 h183v-1098h-183z" />
<glyph unicode="&#xfb02;" d="M49 961v75l195 68v96q0 190 76.5 278.5t254.5 88.5q97 0 197 -37l-47 -141q-79 28 -143 28q-92 0 -124 -50.5t-32 -164.5v-104h246v-137h-246v-961h-182v961h-195zM868 0v1556h183v-1556h-183z" />
<glyph unicode="&#xfb03;" d="M66 971v65l100 62v82q0 106 20 176.5t58.5 112.5t94.5 59.5t128 17.5q49 0 92.5 -11t77.5 -24q38 29 89 42.5t114 13.5q52 0 97.5 -11.5t82.5 -25.5l-41 -131q-29 11 -63.5 19.5t-71.5 8.5q-38 0 -65.5 -11t-45.5 -37t-26.5 -69.5t-8.5 -107.5v-104h367v-1098h-164v971 h-203v-971h-163v971h-205v-971h-164v971h-100zM330 1098h205v102q0 115 24 193q-20 6 -42.5 10t-45.5 4q-35 0 -61.5 -11t-44 -37t-26.5 -69.5t-9 -107.5v-84z" />
<glyph unicode="&#xfb04;" d="M66 971v65l100 62v82q0 106 20 176.5t58.5 112.5t94.5 59.5t128 17.5q49 0 92.5 -11t77.5 -24q38 29 89 42.5t114 13.5q48 0 94 -11h131v-1556h-164v1421q-14 3 -28.5 4.5t-28.5 1.5q-38 0 -65.5 -11t-45.5 -37t-26.5 -69.5t-8.5 -107.5v-104h142v-127h-142v-971h-163 v971h-205v-971h-164v971h-100zM330 1098h205v102q0 115 24 193q-20 6 -42.5 10t-45.5 4q-35 0 -61.5 -11t-44 -37t-26.5 -69.5t-9 -107.5v-84z" />
</font>
</defs>
</svg>
